The Big Bang Theory Season 11 (2017) | The Flash Season 4 (2017) | Game of Thrones Season 4 (2014)
Si continuas navegando por Mega Descargas, aceptas las políticas de privacidadAcepto el uso de cookies
^

23GB|Rokka no Yuusha|12/12|BDRip 1080p|Tortuga3


Antes que nada les aviso que me dió flojera (cada vez es peor) agregar los subtítulos en los Mkv por lo que los dejé aparte.Cuenta la leyenda que cuando el Dios Demonio despierte de las profundidades de la oscuridad, la Diosa del Destino llamará a Seis Héroes y les otorgará el poder de salvar al mundo. Adlet, quien dice ser el más fuerte en la faz de la tierra, es elegido como uno de los "Héroes de la Flor de Seis Pétalos", y emprende su viaje para prevenir la resurrección del Dios Demonio. Sin embargo, se encuentra con que hay Siete Héroes en la tierra prometida...
Calidad: BDRip | Formato: MP4 | Codec: x264 | Contenedor: Mkv | Bitrate: 12,0Mb/s (Variable) | Resolución: 1920x1080p | Aspecto: 16:9 | Tamaño: 23GB (Total) | Framerate: 23,976fps | Audio: Japonés 2.0 (FLAC 2,483Kbps, 2 canales)  | Subtitulos: Latino (ass)(Crunchyroll) | Episodios: 12/12 | Servidor: Uptobox/Mega/Sendit | Encoder: Beatrice-Raws | Uploader: Tortuga3
Cita: Mostrar
Cita: Mostrar
General
Complete name               : Rokka no Yuusha
Format                      : Matroska
Format version              : Version 4 / Version 2
File size                   : 2.04 GiB
Duration                    : 23 min 42 s
Overall bit rate mode       : Variable
Overall bit rate            : 12.3 Mb/s
Encoded date                : UTC 2017-11-15 22:30:45
Writing application         : mkvmerge v17.0.0 ('Be Ur Friend') 64-bit
Writing library             : libebml v1.3.5 + libmatroska v1.4.8

Video
ID                          : 1
Format                      : AVC
Format/Info                 : Advanced Video Codec
Format profile              : High
Format settings             : CABAC / 4 Ref Frames
Format settings, CABAC      : Yes
Format settings, ReFrames   : 4 frames
Codec ID                    : V_MPEG4/ISO/AVC
Duration                    : 23 min 42 s
Bit rate                    : 9 858 kb/s
Width                       : 1 920 pixels
Height                      : 1 080 pixels
Display aspect ratio        : 16:9
Frame rate mode             : Constant
Frame rate                  : 23.976 (24000/1001) FPS
Color space                 : YUV
Chroma subsampling          : 4:2:0
Bit depth                   : 10 bits
Scan type                   : Progressive
Bits/(Pixel*Frame)          : 0.198
Stream size                 : 1.63 GiB (80%)
Title                       : BDrip by Jensen
Writing library             : x264 core 148 r2597M e86f3a1 (DJATOM's build)
Encoding settings           : cabac=1 / ref=4 / deblock=1:1:-1 / analyse=0x3:0x113 / me=umh / subme=9 / psy=1 / fade_compensate=0.00 / psy_rd=1.00:0.00 / mixed_ref=1 / me_range=32 / chroma_me=1 / trellis=2 / 8x8dct=1 / cqm=0 / deadzone=21,11 / fast_pskip=1 / chroma_qp_offset=-2 / threads=34 / lookahead_threads=5 / sliced_threads=0 / nr=0 / decimate=1 / interlaced=0 / bluray_compat=0 / constrained_intra=0 / bframes=9 / b_pyramid=2 / b_adapt=2 / b_bias=0 / direct=1 / weightb=1 / open_gop=0 / weightp=2 / keyint=240 / keyint_min=23 / scenecut=40 / intra_refresh=0 / rc=crf / mbtree=0 / crf=15.0000 / qcomp=0.72 / qpmin=0 / qpmax=81 / qpstep=4 / ip_ratio=1.40 / pb_ratio=1.30 / aq=1:0.85
Language                    : Japanese
Default                     : Yes
Forced                      : No
Color range                 : Limited
Color primaries             : BT.709
Transfer characteristics    : BT.709
Matrix coefficients         : BT.709

Audio
ID                          : 2
Format                      : FLAC
Format/Info                 : Free Lossless Audio Codec
Codec ID                    : A_FLAC
Duration                    : 23 min 42 s
Bit rate mode               : Variable
Bit rate                    : 2 483 kb/s
Channel(s)                  : 2 channels
Channel positions           : Front: L R
Sampling rate               : 96.0 kHz
Frame rate                  : 23.438 FPS (4096 SPF)
Bit depth                   : 24 bits
Stream size                 : 421 MiB (20%)
Writing library             : libFLAC 1.3.1 (UTC 2014-11-25)
Language                    : Japanese
Default                     : Yes
Forced                      : No

Menu
00:00:00.000                : en:Avant
00:00:28.028                : enP
00:01:58.035                : enart A
00:10:53.027                : enart B
00:22:05.032                : en:ED
00:23:35.039                : en:Next
Tambien te puede interesar
Enlaces De DescargaEnlaces Disponibles solo para Users Premium

Enlaces Pendientes
Enlaces Pendientes

Tortuga 3


Crea Tu Post